osu file format v14

[General]
AudioFilename: Sharlo - START-DASH!!.mp3
AudioLeadIn: 1500
PreviewTime: 62985
Countdown: 0
SampleSet: Soft
StackLeniency: 0.7
Mode: 3
LetterboxInBreaks: 0
WidescreenStoryboard: 0

[Editor]
DistanceSpacing: 0.6
BeatDivisor: 4
GridSize: 32
TimelineZoom: 1.7

[Metadata]
Title:START:DASH!!
TitleUnicode:START:DASH!!
Artist:Sharlo
ArtistUnicode:Sharlo
Creator:Pikachi-
Version:HD
Source:Love Live! School idol project
Tags:u's muse ラブライブ!lovelive Sherrysina -Bangke-
BeatmapID:758452
BeatmapSetID:343253

[Difficulty]
HPDrainRate:8
CircleSize:4
OverallDifficulty:8
ApproachRate:5
SliderMultiplier:1.4
SliderTickRate:1

[Events]
//Background and Video events
0,0,"Love Live! School Idol Project - 03 - 01.jpg",0,0
//Break Periods
//Storyboard Layer 0 (Background)
//Storyboard Layer 1 (Fail)
//Storyboard Layer 2 (Pass)
//Storyboard Layer 3 (Foreground)
//Storyboard Sound Samples

[TimingPoints]
-715,400,4,2,1,20,1,0
34085,-80,4,2,1,20,0,0
34485,-500,4,2,1,20,0,0
34685,-80,4,2,1,20,0,0
34885,-100,4,2,1,20,0,0
48485,-133.333333333333,4,2,1,20,0,0
48885,-100,4,2,1,20,0,0
63285,-100,4,2,1,20,0,1
75285,-100,4,2,1,20,0,0
76085,-100,4,2,1,20,0,1
91685,-80,4,2,1,20,0,1
92085,-100,4,2,1,20,0,0

[HitObjects]
448,192,685,5,0,0:0:0:26:
192,192,785,1,0,0:0:0:26:
64,192,885,1,0,0:0:0:13:
320,192,885,128,0,1285:0:0:0:0:
448,192,1285,1,0,0:0:0:26:
64,192,1485,1,0,0:0:0:13:
192,192,1485,128,0,2085:0:0:0:0:
448,192,2285,1,0,0:0:0:26:
320,192,2385,1,0,0:0:0:26:
448,192,2485,128,0,2885:0:0:0:0:
64,192,2485,1,0,0:0:0:13:
192,192,2885,1,0,0:0:0:26:
64,192,3085,1,0,0:0:0:13:
320,192,3085,128,0,3685:0:0:0:0:
192,192,3885,1,0,0:0:0:26:
64,192,3985,1,0,0:0:0:26:
448,192,4085,1,0,0:0:0:13:
320,192,4085,128,0,4285:0:0:0:0:
64,192,4285,1,0,0:0:0:26:
192,192,4485,128,0,4685:0:0:0:0:
448,192,4685,128,0,5085:0:0:0:0:
64,192,5085,1,0,0:0:0:26:
320,192,5285,1,0,0:0:0:26:
64,192,5485,1,0,0:0:0:26:
192,192,5535,1,0,0:0:0:26:
320,192,5585,1,0,0:0:0:26:
448,192,5635,128,0,6485:0:0:0:0:
192,192,5885,1,10,0:0:0:13:
64,192,5885,1,10,0:0:0:13:
64,192,6085,1,10,0:0:0:13:
192,192,6085,1,10,0:0:0:13:
64,192,6285,1,10,0:0:0:13:
192,192,6285,1,10,0:0:0:13:
64,192,6485,1,10,0:0:0:13:
192,192,6485,1,10,0:0:0:13:
320,192,6685,1,10,0:0:0:13:
448,192,6685,1,10,0:0:0:13:
64,192,6885,1,0,0:0:0:26:
192,192,6985,1,0,0:0:0:26:
448,192,7085,1,0,0:0:0:26:
320,192,7185,1,0,0:0:0:26:
448,192,7285,1,12,0:0:0:13:
64,192,7285,128,12,10485:0:0:0:0:
320,192,7485,1,0,0:0:0:26:
192,192,7685,1,8,0:0:0:13:
448,192,7685,1,8,0:0:0:13:
320,192,7885,1,0,0:0:0:26:
192,192,8085,1,0,0:0:0:26:
448,192,8285,1,0,0:0:0:26:
192,192,8485,1,8,0:0:0:13:
320,192,8485,1,8,0:0:0:13:
448,192,8685,1,0,0:0:0:26:
320,192,8885,1,0,0:0:0:26:
192,192,9085,1,0,0:0:0:26:
320,192,9285,1,8,0:0:0:13:
448,192,9285,1,8,0:0:0:13:
192,192,9485,1,0,0:0:0:26:
448,192,9685,1,0,0:0:0:26:
320,192,9885,1,0,0:0:0:26:
192,192,10085,1,8,0:0:0:13:
448,192,10085,1,8,0:0:0:13:
320,192,10285,1,0,0:0:0:26:
192,192,10485,1,2,0:0:0:13:
448,192,10485,128,2,10885:0:0:0:0:
320,192,10885,1,8,0:0:0:13:
64,192,10885,1,8,0:0:0:13:
192,192,11285,128,0,11685:0:0:0:0:
448,192,11685,1,8,0:0:0:13:
64,192,11685,1,8,0:0:0:13:
64,192,12085,128,0,12485:0:0:0:0:
192,192,12485,1,8,0:0:0:13:
320,192,12485,1,8,0:0:0:13:
320,192,12685,1,0,0:0:0:26:
448,192,12885,1,8,0:0:0:13:
64,192,12885,1,8,0:0:0:13:
448,192,13285,1,8,0:0:0:13:
64,192,13285,1,8,0:0:0:0:
448,192,13685,1,4,0:0:0:13:
64,192,13685,128,4,14085:0:0:0:0:
192,192,13885,1,0,0:0:0:26:
448,192,14085,1,8,0:0:0:13:
320,192,14085,128,8,14485:0:0:0:0:
64,192,14285,1,0,0:0:0:26:
192,192,14485,1,0,0:0:0:26:
448,192,14685,128,0,14885:0:0:0:0:
64,192,14885,1,8,0:0:0:13:
192,192,14885,1,8,0:0:0:13:
320,192,15085,128,0,15285:0:0:0:0:
64,192,15285,1,0,0:0:0:26:
192,192,15485,128,0,15685:0:0:0:0:
320,192,15685,1,8,0:0:0:13:
448,192,15685,1,8,0:0:0:13:
64,192,15885,128,0,16285:0:0:0:0:
320,192,16085,1,0,0:0:0:26:
192,192,16285,128,0,16485:0:0:0:0:
320,192,16485,128,8,16685:0:0:0:0:
64,192,16485,1,8,0:0:0:13:
448,192,16685,128,0,17285:0:0:0:0:
64,192,16885,1,0,0:0:0:26:
192,192,17085,1,0,0:0:0:26:
320,192,17285,1,8,0:0:0:13:
64,192,17285,1,0,0:0:0:0:
192,192,17685,1,0,0:0:0:26:
320,192,17885,1,0,0:0:0:26:
192,192,18085,1,8,0:0:0:13:
448,192,18085,1,0,0:0:0:0:
64,192,18485,1,0,0:0:0:26:
320,192,18685,1,0,0:0:0:26:
448,192,18885,1,12,0:0:0:13:
192,192,18885,1,0,0:0:0:0:
64,192,19285,1,0,0:0:0:26:
448,192,19485,1,8,0:0:0:13:
320,192,19485,1,8,0:0:0:13:
64,192,19585,1,8,0:0:0:13:
192,192,19585,1,8,0:0:0:13:
320,192,19685,1,8,0:0:0:13:
448,192,19685,1,8,0:0:0:13:
192,192,19785,1,4,3:0:0:13:
64,192,19785,1,4,3:0:0:13:
320,192,19885,1,4,3:0:0:13:
448,192,19885,1,4,3:0:0:13:
192,192,19985,1,4,3:0:0:13:
64,192,19985,1,4,3:0:0:13:
448,192,20085,1,4,0:0:0:8:
320,192,20085,1,4,0:0:0:8:
64,192,20085,128,8,23285:0:0:0:0:
192,192,20485,1,2,0:0:0:26:
192,192,20885,1,2,0:0:0:26:
320,192,21285,1,8,0:0:0:13:
448,192,21285,1,8,0:0:0:13:
320,192,21685,1,2,0:0:0:26:
320,192,22085,1,2,0:0:0:26:
448,192,22485,1,2,0:0:0:26:
192,192,22685,1,2,0:0:0:26:
320,192,22785,1,2,0:0:0:26:
448,192,22885,1,8,0:0:0:13:
192,192,22885,1,8,0:0:0:13:
320,192,23085,1,2,0:0:0:26:
192,192,23285,1,8,0:0:0:13:
448,192,23285,1,8,0:0:0:13:
64,192,23685,128,2,24085:0:0:0:0:
320,192,23885,1,2,0:0:0:26:
448,192,24085,1,2,0:0:0:26:
320,192,24285,1,2,0:0:0:26:
192,192,24485,1,8,0:0:0:13:
448,192,24485,128,8,24885:0:0:0:0:
320,192,24685,1,2,0:0:0:26:
64,192,24885,1,2,0:0:0:26:
192,192,25085,1,2,0:0:0:26:
448,192,25285,1,2,0:0:0:26:
320,192,25685,1,2,0:0:0:0:
192,192,25885,1,0,0:0:0:0:
64,192,26085,128,0,26485:0:0:0:0:
192,192,26485,1,2,0:0:0:26:
448,192,26685,1,2,0:0:0:26:
192,192,26885,1,2,0:0:0:26:
64,192,27085,1,2,0:0:0:26:
320,192,27285,1,2,0:0:0:26:
448,192,27485,1,2,0:0:0:26:
192,192,27685,1,8,0:0:0:13:
320,192,27685,1,8,0:0:0:13:
448,192,27885,1,2,0:0:0:26:
64,192,28085,1,2,0:0:0:26:
192,192,28285,1,2,0:0:0:26:
320,192,28485,1,2,0:0:0:26:
448,192,28685,128,2,29485:0:0:0:0:
64,192,28885,1,2,0:0:0:26:
320,192,29085,1,2,0:0:0:26:
64,192,29285,1,8,0:0:0:13:
320,192,29285,1,8,0:0:0:13:
192,192,29485,128,2,29685:0:0:0:0:
64,192,29685,1,2,0:0:0:26:
64,192,30085,128,2,30485:0:0:0:0:
448,192,30285,128,2,30485:0:0:0:0:
192,192,30485,1,2,0:0:0:26:
320,192,30685,1,2,0:0:0:26:
64,192,30885,1,8,0:0:0:13:
448,192,30885,1,8,0:0:0:13:
192,192,31085,1,2,0:0:0:26:
448,192,31285,128,2,31685:0:0:0:0:
192,192,31485,1,2,0:0:0:26:
64,192,31685,1,8,0:0:0:13:
320,192,31685,1,8,0:0:0:13:
320,192,31885,1,2,0:0:0:26:
192,192,32085,1,2,0:0:0:26:
448,192,32285,128,2,32685:0:0:0:0:
64,192,32485,128,8,32685:0:0:0:0:
320,192,32485,1,8,0:0:0:13:
192,192,32685,128,2,33485:0:0:0:0:
320,192,32885,1,2,0:0:0:26:
64,192,33085,1,2,0:0:0:26:
448,192,33285,1,8,0:0:0:13:
320,192,33285,1,8,0:0:0:13:
64,192,33485,1,2,0:0:0:26:
448,192,33685,1,2,0:0:0:26:
320,192,33885,1,8,0:0:0:8:
64,192,33885,1,0,0:0:0:8:
192,192,34085,1,8,0:0:0:8:
448,192,34085,128,0,34485:0:0:0:0:
320,192,34485,5,0,0:0:0:26:
64,192,34885,1,4,0:0:0:8:
448,192,34885,1,8,0:0:0:8:
320,192,34885,1,12,0:0:0:8:
192,192,35285,5,8,0:0:0:13:
64,192,35285,1,8,0:0:0:13:
448,192,35385,1,8,0:0:0:13:
320,192,35385,1,8,0:0:0:13:
192,192,35485,1,8,0:0:0:13:
64,192,35485,1,8,0:0:0:13:
448,192,35585,1,8,0:0:0:13:
320,192,35585,1,8,0:0:0:13:
192,192,35685,1,4,3:0:0:13:
64,192,35685,1,4,3:0:0:13:
320,192,35785,1,4,3:0:0:26:
448,192,35885,1,4,3:0:0:26:
64,192,35985,1,4,3:0:0:26:
192,192,36085,1,4,0:0:0:8:
320,192,36085,1,4,0:0:0:8:
320,192,36485,1,8,0:0:0:13:
192,192,36485,1,8,0:0:0:13:
64,192,36685,1,2,0:0:0:26:
320,192,36885,1,2,0:0:0:26:
448,192,37085,1,2,0:0:0:26:
64,192,37285,1,8,0:0:0:13:
192,192,37285,1,8,0:0:0:13:
320,192,37485,1,2,0:0:0:26:
320,192,37685,128,2,38085:0:0:0:0:
192,192,37885,1,2,0:0:0:26:
448,192,38085,1,8,0:0:0:13:
64,192,38085,1,8,0:0:0:0:
192,192,38185,1,2,0:0:0:0:
320,192,38285,128,2,38685:0:0:0:0:
448,192,38385,1,2,0:0:0:0:
64,192,38485,1,2,0:0:0:0:
192,192,38585,1,2,0:0:0:0:
448,192,38685,128,2,39285:0:0:0:0:
320,192,38885,1,8,0:0:0:13:
64,192,38885,1,8,0:0:0:0:
320,192,39085,1,2,0:0:0:26:
192,192,39285,1,2,0:0:0:26:
320,192,39485,1,2,0:0:0:26:
64,192,39685,1,8,0:0:0:13:
448,192,39685,1,8,0:0:0:13:
320,192,39885,1,2,0:0:0:26:
192,192,40085,1,2,0:0:0:26:
320,192,40185,1,2,0:0:0:0:
64,192,40285,1,2,0:0:0:26:
448,192,40485,1,8,0:0:0:13:
192,192,40485,1,0,0:0:0:0:
64,192,40885,128,2,41285:0:0:0:0:
320,192,40885,1,2,0:0:0:13:
448,192,41085,1,2,0:0:0:26:
320,192,41285,1,8,0:0:0:26:
192,192,41285,1,8,0:0:0:0:
448,192,41485,128,2,42285:0:0:0:0:
320,192,41685,1,2,0:0:0:0:
192,192,41785,1,2,0:0:0:0:
320,192,41885,1,2,0:0:0:0:
64,192,42085,1,8,0:0:0:13:
192,192,42085,1,8,0:0:0:0:
320,192,42285,1,2,0:0:0:0:
64,192,42485,128,2,42885:0:0:0:0:
192,192,42885,1,8,0:0:0:13:
448,192,42885,1,8,0:0:0:13:
320,192,43085,1,2,0:0:0:26:
192,192,43285,1,2,0:0:0:26:
64,192,43385,1,2,0:0:0:26:
192,192,43485,1,2,0:0:0:26:
448,192,43685,1,8,0:0:0:13:
320,192,43685,1,8,0:0:0:13:
64,192,43885,1,2,0:0:0:26:
320,192,44085,1,2,0:0:0:26:
192,192,44285,1,2,0:0:0:26:
64,192,44485,1,2,0:0:0:26:
320,192,44685,1,2,0:0:0:26:
448,192,44785,1,2,0:0:0:26:
192,192,44885,1,2,0:0:0:26:
320,192,44985,1,2,0:0:0:26:
448,192,45085,128,2,45285:0:0:0:0:
64,192,45285,1,8,0:0:0:13:
192,192,45285,1,8,0:0:0:13:
448,192,45685,1,4,0:0:0:8:
320,192,45685,1,4,0:0:0:8:
64,192,45685,1,4,0:0:0:8:
64,192,46085,1,8,0:0:0:13:
320,192,46085,1,8,0:0:0:13:
192,192,46285,1,4,0:0:0:8:
448,192,46285,1,4,0:0:0:8:
64,192,46685,1,2,0:0:0:26:
192,192,46885,1,8,0:0:0:13:
320,192,46885,1,8,0:0:0:13:
448,192,47085,1,4,0:0:0:8:
64,192,47085,1,4,0:0:0:8:
192,192,47485,1,2,0:0:0:0:
448,192,47685,1,8,0:0:0:0:
320,192,47685,1,8,0:0:0:0:
192,192,47885,1,2,0:0:0:0:
64,192,47985,1,2,0:0:0:0:
192,192,48085,1,8,0:0:0:0:
320,192,48085,1,8,0:0:0:0:
320,192,48285,1,8,0:0:0:0:
448,192,48285,1,8,0:0:0:0:
320,192,48485,1,8,0:0:0:0:
448,192,48485,1,8,0:0:0:0:
64,192,48885,1,4,0:0:0:0:
192,192,48885,1,4,0:0:0:0:
448,192,49285,128,2,49485:0:0:0:0:
192,192,49485,1,2,0:0:0:0:
64,192,49685,1,8,0:0:0:0:
320,192,49685,1,8,0:0:0:0:
64,192,50085,1,2,0:0:0:0:
192,192,50285,1,8,0:0:0:0:
448,192,50285,1,8,0:0:0:0:
320,192,50485,1,2,0:0:0:0:
64,192,50685,1,8,0:0:0:0:
448,192,50685,1,8,0:0:0:0:
320,192,50885,1,2,0:0:0:0:
64,192,51085,1,2,0:0:0:0:
192,192,51185,1,2,0:0:0:0:
320,192,51285,1,8,0:0:0:0:
448,192,51285,1,8,0:0:0:0:
64,192,51485,1,2,0:0:0:0:
320,192,51685,1,2,0:0:0:0:
192,192,51885,1,8,0:0:0:0:
448,192,51885,1,8,0:0:0:0:
320,192,52085,1,12,0:0:0:0:
64,192,52085,1,8,0:0:0:0:
192,192,52285,1,2,0:0:0:0:
448,192,52485,1,2,0:0:0:0:
192,192,52685,1,2,0:0:0:0:
320,192,52885,1,8,0:0:0:0:
448,192,52885,1,8,0:0:0:0:
64,192,53085,1,2,0:0:0:0:
448,192,53285,1,2,0:0:0:0:
448,192,53485,1,8,0:0:0:0:
64,192,53485,1,8,0:0:0:0:
192,192,53685,1,2,0:0:0:0:
64,192,53885,1,8,0:0:0:0:
320,192,53885,1,8,0:0:0:0:
320,192,54085,1,2,0:0:0:0:
448,192,54285,1,2,0:0:0:0:
320,192,54385,1,2,0:0:0:0:
64,192,54485,1,12,0:0:0:0:
192,192,54485,1,12,0:0:0:0:
320,192,54685,1,2,0:0:0:0:
448,192,54885,1,8,0:0:0:0:
64,192,54885,1,8,0:0:0:0:
192,192,55085,1,2,0:0:0:0:
64,192,55285,1,8,0:0:0:0:
320,192,55285,128,12,55685:0:0:0:0:
192,192,55485,1,0,0:0:0:0:
64,192,55685,1,8,0:0:0:0:
448,192,55685,1,8,0:0:0:0:
64,192,56285,128,0,56685:0:0:0:0:
448,192,56485,1,8,0:0:0:0:
320,192,56485,1,8,0:0:0:0:
192,192,56685,1,0,0:0:0:0:
320,192,56885,128,0,57685:0:0:0:0:
448,192,57085,1,0,0:0:0:0:
64,192,57285,1,8,0:0:0:0:
192,192,57285,1,8,0:0:0:0:
448,192,57485,1,0,0:0:0:0:
320,192,58085,1,8,0:0:0:0:
448,192,58085,1,8,0:0:0:0:
192,192,58285,1,0,0:0:0:0:
64,192,58485,1,8,0:0:0:0:
320,192,58485,1,12,0:0:0:0:
448,192,58485,1,12,0:0:0:0:
192,192,58685,1,0,0:0:0:0:
64,192,58885,1,8,0:0:0:0:
320,192,58885,1,8,0:0:0:0:
448,192,59085,1,0,0:0:0:0:
448,192,59685,1,8,0:0:0:0:
64,192,59685,1,8,0:0:0:0:
192,192,59885,128,4,61285:0:0:0:0:
320,192,59885,1,4,0:0:0:0:
64,192,60285,1,0,0:0:0:0:
320,192,60485,1,8,0:0:0:0:
448,192,60485,1,8,0:0:0:0:
64,192,60685,1,4,3:0:0:0:
448,192,60885,5,4,3:0:0:13:
320,192,60885,1,4,3:0:0:13:
320,192,61085,1,4,3:0:0:13:
448,192,61085,1,4,3:0:0:13:
64,192,61285,1,0,0:0:0:26:
448,192,61485,1,8,0:0:0:13:
192,192,61485,1,8,0:0:0:13:
192,192,62885,1,4,0:0:0:0:
320,192,62885,1,8,0:0:0:0:
64,192,63085,1,0,0:0:0:0:
192,192,63185,1,0,0:0:0:0:
320,192,63285,1,0,0:0:0:26:
192,192,63485,1,0,0:0:0:0:
448,192,63685,1,8,0:0:0:0:
320,192,63685,1,8,0:0:0:0:
192,192,63885,1,0,0:0:0:0:
64,192,64085,1,0,0:0:0:0:
320,192,64285,1,0,0:0:0:0:
448,192,64485,1,8,0:0:0:0:
192,192,64485,1,8,0:0:0:0:
320,192,64685,1,0,0:0:0:0:
64,192,64885,1,12,0:0:0:0:
192,192,64885,1,12,0:0:0:0:
448,192,65085,1,0,0:0:0:0:
320,192,65285,1,8,0:0:0:0:
64,192,65285,1,8,0:0:0:0:
448,192,65485,128,0,66085:0:0:0:0:
320,192,65685,1,0,0:0:0:0:
192,192,65885,1,0,0:0:0:0:
64,192,66085,1,8,0:0:0:0:
320,192,66085,1,8,0:0:0:0:
192,192,66285,1,0,0:0:0:0:
448,192,66485,1,12,0:0:0:0:
64,192,66485,1,12,0:0:0:0:
192,192,66685,1,0,0:0:0:0:
320,192,66885,1,8,0:0:0:0:
448,192,66885,1,8,0:0:0:0:
64,192,67085,1,0,0:0:0:0:
192,192,67285,1,0,0:0:0:0:
448,192,67485,1,0,0:0:0:0:
64,192,67685,1,8,0:0:0:0:
192,192,67685,1,8,0:0:0:0:
320,192,67885,1,0,0:0:0:0:
64,192,68085,1,0,0:0:0:0:
192,192,68285,1,0,0:0:0:0:
448,192,68485,1,8,0:0:0:0:
64,192,68485,1,8,0:0:0:0:
448,192,68685,128,0,69085:0:0:0:0:
64,192,69285,1,8,0:0:0:0:
192,192,69285,1,8,0:0:0:0:
64,192,69485,128,0,69685:0:0:0:0:
192,192,69685,1,12,0:0:0:0:
320,192,69685,1,12,0:0:0:0:
448,192,69885,1,0,0:0:0:0:
64,192,70085,1,8,0:0:0:0:
192,192,70085,1,8,0:0:0:0:
320,192,70285,1,0,0:0:0:0:
192,192,70485,1,0,0:0:0:0:
320,192,70685,128,0,70885:0:0:0:0:
448,192,70885,1,8,0:0:0:0:
64,192,70885,1,8,0:0:0:0:
192,192,71085,1,0,0:0:0:0:
448,192,71285,1,12,0:0:0:0:
320,192,71285,1,12,0:0:0:0:
64,192,71485,128,0,71685:0:0:0:0:
192,192,71685,128,8,71885:0:0:0:0:
320,192,71685,1,8,0:0:0:0:
448,192,71885,128,0,72485:0:0:0:0:
320,192,72085,1,0,0:0:0:0:
320,192,72485,1,8,0:0:0:0:
64,192,72485,1,8,0:0:0:0:
192,192,72685,128,0,72885:0:0:0:0:
64,192,72885,128,8,73285:0:0:0:0:
448,192,72885,1,8,0:0:0:0:
320,192,73085,1,0,0:0:0:0:
192,192,73285,128,8,73685:0:0:0:0:
448,192,73285,1,8,0:0:0:0:
320,192,73485,1,0,0:0:0:0:
320,192,73685,128,8,74085:0:0:0:0:
64,192,73685,1,8,0:0:0:0:
192,192,73885,1,0,0:0:0:0:
448,192,74085,128,8,74485:0:0:0:0:
64,192,74085,1,8,0:0:0:0:
192,192,74285,1,0,0:0:0:0:
64,192,74485,128,8,74885:0:0:0:0:
320,192,74485,1,8,0:0:0:0:
192,192,74685,1,0,0:0:0:0:
320,192,74885,128,8,75285:0:0:0:0:
448,192,74885,1,8,0:0:0:0:
192,192,75085,1,0,0:0:0:0:
64,192,75285,5,8,0:0:0:0:
192,192,75385,1,8,0:0:0:0:
448,192,75485,1,8,0:0:0:0:
320,192,75585,1,8,0:0:0:0:
192,192,75685,1,4,3:0:0:0:
64,192,75785,1,4,3:0:0:0:
448,192,75785,1,4,3:0:0:0:
320,192,75885,1,4,3:0:0:0:
192,192,75985,1,4,3:0:0:0:
448,192,76085,1,4,0:0:0:0:
64,192,76085,1,4,0:0:0:0:
320,192,76285,1,0,0:0:0:0:
64,192,76485,1,8,0:0:0:0:
448,192,76485,1,8,0:0:0:0:
64,192,76885,1,0,0:0:0:0:
192,192,76885,1,0,0:0:0:0:
448,192,77085,128,0,77485:0:0:0:0:
192,192,77285,1,8,0:0:0:0:
320,192,77285,1,8,0:0:0:0:
64,192,77485,128,0,77685:0:0:0:0:
192,192,77685,128,12,77885:0:0:0:0:
320,192,77885,128,0,78285:0:0:0:0:
64,192,78085,1,8,0:0:0:0:
192,192,78085,1,8,0:0:0:0:
448,192,78285,128,0,78685:0:0:0:0:
64,192,78685,1,0,0:0:0:0:
192,192,78885,1,8,0:0:0:0:
320,192,78885,1,8,0:0:0:0:
448,192,79085,1,0,0:0:0:0:
64,192,79285,1,12,0:0:0:0:
192,192,79285,1,12,0:0:0:0:
320,192,79485,1,0,0:0:0:0:
64,192,79685,1,8,0:0:0:0:
448,192,79685,1,8,0:0:0:0:
320,192,79885,1,0,0:0:0:0:
192,192,80085,1,0,0:0:0:0:
448,192,80285,1,0,0:0:0:0:
320,192,80485,1,8,0:0:0:0:
64,192,80485,1,8,0:0:0:0:
192,192,80685,1,0,0:0:0:0:
192,192,80885,1,12,0:0:0:0:
448,192,80885,1,12,0:0:0:0:
320,192,81085,1,0,0:0:0:0:
64,192,81285,1,8,0:0:0:0:
448,192,81285,1,8,0:0:0:0:
320,192,81485,128,0,81885:0:0:0:0:
448,192,81885,128,0,82085:0:0:0:0:
192,192,82085,1,8,0:0:0:0:
64,192,82085,1,8,0:0:0:0:
448,192,82285,128,0,82885:0:0:0:0:
320,192,82685,128,0,82885:0:0:0:0:
192,192,82885,128,8,83085:0:0:0:0:
64,192,83085,128,0,83685:0:0:0:0:
320,192,83485,128,0,83685:0:0:0:0:
192,192,83685,128,8,83885:0:0:0:0:
448,192,83885,128,0,84485:0:0:0:0:
64,192,84285,128,0,84485:0:0:0:0:
192,192,84485,128,8,84685:0:0:0:0:
448,192,84485,1,8,0:0:0:0:
320,192,84685,128,0,85285:0:0:0:0:
448,192,85085,128,0,85285:0:0:0:0:
64,192,85285,128,8,85485:0:0:0:0:
192,192,85485,128,0,86085:0:0:0:0:
320,192,85885,128,0,86085:0:0:0:0:
448,192,86085,128,8,86285:0:0:0:0:
64,192,86285,128,0,86885:0:0:0:0:
192,192,86685,128,0,86885:0:0:0:0:
320,192,86885,128,8,87085:0:0:0:0:
448,192,87085,128,0,87285:0:0:0:0:
64,192,87285,128,0,87485:0:0:0:0:
192,192,87485,128,0,87685:0:0:0:0:
320,192,87685,128,8,87885:0:0:0:0:
64,192,87685,1,8,0:0:0:0:
448,192,87885,128,0,88485:0:0:0:0:
64,192,88085,1,12,0:0:0:0:
192,192,88085,1,12,0:0:0:0:
64,192,88285,1,12,0:0:0:0:
192,192,88285,1,12,0:0:0:0:
64,192,88485,1,12,0:0:0:0:
192,192,88485,1,12,0:0:0:0:
320,192,88685,1,0,0:0:0:0:
448,192,88885,128,4,89285:0:0:0:0:
192,192,88885,1,4,0:0:0:0:
320,192,89085,1,0,0:0:0:0:
64,192,89285,1,12,0:0:0:0:
192,192,89285,1,12,0:0:0:0:
64,192,89685,128,0,90085:0:0:0:0:
192,192,90085,128,4,90285:0:0:0:0:
320,192,90285,128,4,90485:0:0:0:0:
192,192,90485,1,8,0:0:0:0:
448,192,90485,128,4,91685:0:0:0:0:
320,192,90885,128,0,91685:0:0:0:0:
192,192,91285,1,0,0:0:0:0:
62,192,91685,1,4,3:0:0:0:
190,192,91685,1,4,3:0:0:0:
448,192,92085,1,12,0:0:0:0:
64,192,92085,128,12,94085:0:0:0:0:
192,192,92285,1,0,0:0:0:0:
320,192,92485,1,8,0:0:0:0:
448,192,92485,1,8,0:0:0:0:
192,192,92685,1,0,0:0:0:0:
448,192,92885,1,0,0:0:0:0:
320,192,93085,1,0,0:0:0:0:
448,192,93285,1,8,0:0:0:0:
192,192,93285,1,8,0:0:0:0:
320,192,93485,1,0,0:0:0:0:
448,192,93685,1,0,0:0:0:0:
192,192,93885,1,0,0:0:0:0:
320,192,94085,1,8,0:0:0:0:
448,192,94085,1,8,0:0:0:0:
192,192,94285,1,0,0:0:0:0:
448,192,94485,1,0,0:0:0:0:
192,192,94685,1,0,0:0:0:0:
64,192,94885,1,8,0:0:0:0:
320,192,94885,1,8,0:0:0:0:
448,192,95085,1,0,0:0:0:0:
192,192,95285,1,0,0:0:0:0:
320,192,95485,1,0,0:0:0:0:
448,192,95685,128,8,96085:0:0:0:0:
192,192,95685,1,8,0:0:0:0:
64,192,96085,1,0,0:0:0:0:
192,192,96285,1,0,0:0:0:0:
320,192,96485,128,8,96885:0:0:0:0:
448,192,96485,1,8,0:0:0:0:
64,192,96885,1,0,0:0:0:0:
448,192,97085,1,0,0:0:0:0:
192,192,97285,128,8,97685:0:0:0:0:
64,192,97285,1,8,0:0:0:0:
320,192,97685,1,8,0:0:0:0:
448,192,97685,1,8,0:0:0:0:
320,192,98085,1,8,0:0:0:0:
448,192,98085,1,8,0:0:0:0:
64,192,98485,1,12,0:0:0:0:
448,192,98485,128,12,98885:0:0:0:0:
320,192,98685,1,0,0:0:0:0:
64,192,98885,1,8,0:0:0:0:
192,192,98885,128,8,99285:0:0:0:0:
448,192,99085,1,0,0:0:0:0:
64,192,99285,128,0,99485:0:0:0:0:
320,192,99485,128,0,99685:0:0:0:0:
192,192,99685,1,8,0:0:0:0:
448,192,99685,1,8,0:0:0:0:
64,192,99885,128,0,100085:0:0:0:0:
192,192,100085,1,0,0:0:0:0:
320,192,100285,128,0,100485:0:0:0:0:
192,192,100485,1,8,0:0:0:0:
64,192,100485,1,8,0:0:0:0:
448,192,100685,128,0,101085:0:0:0:0:
64,192,100885,1,0,0:0:0:0:
320,192,101085,128,0,101285:0:0:0:0:
192,192,101285,128,8,101485:0:0:0:0:
448,192,101285,1,8,0:0:0:0:
64,192,101485,128,0,102085:0:0:0:0:
320,192,101685,1,0,0:0:0:0:
448,192,101885,1,0,0:0:0:0:
192,192,102085,128,8,102485:0:0:0:0:
320,192,102085,1,8,0:0:0:0:
448,192,102485,1,0,0:0:0:0:
64,192,102685,1,0,0:0:0:0:
192,192,102885,128,8,103285:0:0:0:0:
448,192,102885,1,8,0:0:0:0:
64,192,103285,1,0,0:0:0:0:
320,192,103485,1,0,0:0:0:0:
448,192,103685,128,8,103885:0:0:0:0:
64,192,103685,1,8,0:0:0:0:
192,192,103885,1,0,0:0:0:0:
64,192,104085,1,8,0:0:0:0:
448,192,104085,1,8,0:0:0:0:
320,192,104185,1,4,3:0:0:0:
192,192,104285,1,4,3:0:0:0:
64,192,104385,1,4,3:0:0:0:
448,192,104485,1,4,3:0:0:0:
448,192,104685,1,4,3:0:0:0:
64,192,104885,128,4,109685:0:0:0:0:
320,192,104885,128,4,106485:0:0:0:0:
